ii7665.com
Inicio   -   Ayuda   -   Contacto   -   Últimos Torrents

Torrents
Documentales 842
Películas 11256
Películas HD 2068
Series 1961
   Episodios 22513
Series HD 244
   Episodios 2743
Juegos 2689
   PC 1736
Variados 1521
   Deportes 36
   Programas 592
   Videoclips 102
   Otros 722
Música MP3 3525
Total Torrents 57258

Información
Esta web no contiene ningún tipo de fichero almacenado.

Todos los archivos se comparten mediante el BitTorrent, un programa P2P de intercambio entre usuarios.



Descarga la última versión de uTorrent y baja a la máxima velocidad:
Ariana Grande (Ft.Nicki Minaj) - Side to Side
Total Descargas:  3.046 En Diciembre:  3.046

Fecha:  2017-05-02



Torrent:      Descargar         Tamaño:  375,39 MB
Descripción:

General

Format : MPEG-TS
File size : 375 MB
Duration : 3mn 48s
Overall bit rate mode : Variable
Overall bit rate : 13.8 Mbps

Video

Duration : 3mn 48s
Bit rate mode : Variable
Bit rate : 12.7 Mbps
Maximum bit rate : 24.0 Mbps
Width : 1 920 pixels
Height : 1 080 pixels
Display aspect ratio : 16:9
Frame rate : 29.970 (30000/1001) fps
Bits/(Pixel*Frame) : 0.204
Stream size : 346 MiB (92%)

Audio

Duration : 3mn 48s
Bit rate mode : Constant
Bit rate : 384 Kbps
Channel(s) : 6 channels
Channel positions : Front: L C R, Side: L R, LFE
Sampling rate : 48.0 KHz
Frame rate : 31.250 fps (1536 spf)
Stream size : 10.5 MiB (3%)
Language : English



Volver al índice de Variados







Datos legales


22:15:51
computer